[MagicStar] 网购美食宅幸福 最终话 / 先生のおとりよせ EP12 END [WEBDL] [1080p] [AMZN]【生】_acg绅士漫画宝岛,gal.voiux插画

2022-06-19 创建 4

HD 1080p from Prime Video.
Use CBR bitrate mode.
[MagicStar] 网购美食宅幸福 最终话 / 先生のおとりよせ EP12 END [WEBDL] [1080p] [AMZN]【生】_acg绅士漫画宝岛,gal.voiux插画

General Unique ID                      : 314946178169214508083851881684283997038 (0xECF06D734DADD956A9F777142754BB6E) Complete name                  : Sensei.no.Otoriyose.EP12.1080p.AMZN.WEB-DL.DDP2.0.H.264-MagicStar.mkv Format                         : Matroska Format version                 : Version 4 File size                      : 1.29 GiB Duration                       : 23 min 44 s Overall bit rate mode          : Constant Overall bit rate               : 7 756 kb/s Encoded date                   : UTC 2022-06-18 13:09:10 Writing application            : mkvmerge v50.0.0 ('Awakenings') 64-bit Writing library                : libebml v1.4.0 + libmatroska v1.6.2 Cover                          : Yes Attachments                    : cover.png  Video ID                             : 1 Format                         : AVC Format/Info                    : Advanced Video Codec Format profile                 : [email protected] Format settings                : CABAC / 4 Ref Frames Format settings, CABAC         : Yes Format settings, Reference fra : 4 frames Codec ID                       : V_MPEG4/ISO/AVC Duration                       : 23 min 44 s Bit rate mode                  : Constant Bit rate                       : 7 528 kb/s Nominal bit rate               : 10 000 kb/s Width                          : 1 920 pixels Height                         : 1 080 pixels Display aspect ratio           : 16:9 Frame rate mode                : Constant Frame rate                     : 23.976 (24000/1001) FPS Color space                    : YUV Chroma subsampling             : 4:2:0 Bit depth                      : 8 bits Scan type                      : Progressive Bits/(Pixel*Frame)             : 0.151 Stream size                    : 1.25 GiB (97%) Default                        : Yes Forced                         : No Color range                    : Limited Color primaries                : BT.709 Transfer characteristics       : BT.709 Matrix coefficients            : BT.709  Audio ID                             : 2 Format                         : E-AC-3 Format/Info                    : Enhanced AC-3 Commercial name                : Dolby Digital Plus Codec ID                       : A_EAC3 Duration                       : 23 min 44 s Bit rate mode                  : Constant Bit rate                       : 224 kb/s Channel(s)                     : 2 channels Channel layout                 : L R Sampling rate                  : 48.0 kHz Frame rate                     : 31.250 FPS (1536 SPF) Compression mode               : Lossy Stream size                    : 38.0 MiB (3%) Language                       : Japanese Service kind                   : Complete Main Default                        : Yes Forced                         : No

[MagicStar] 潘多拉的果实~科学犯罪搜查档案~ / パンドラの果実~科学犯罪捜査ファイル~ EP09 [WEBDL] [1080p] [HULU]【生】【附日字】

标题:[MagicStar] 网购美食宅幸福 最终话 / 先生のおとりよせ EP12 END [WEBDL] [1080p] [AMZN]【生】_acg绅士漫画宝岛,gal.voiux插画

分类:世界

链接:https://www.acghotel.com/29132.html

版权:本站文章来自网络,如有侵权请联系站长shooder@hotmail.com