天使二次元萌站acgn,动漫导航页_[MagicStar] 潘多拉的果实~科学犯罪搜查档案~ / パンドラの果実~科学犯罪捜査ファイル~ EP09 [WEBDL] [1080p] [HULU]【生】【附日字】

2022-06-19 创建 3

HD 1080p from HULU JAPAN.
天使二次元萌站acgn,动漫导航页_[MagicStar] 潘多拉的果实~科学犯罪搜查档案~ / パンドラの果実~科学犯罪捜査ファイル~ EP09 [WEBDL] [1080p] [HULU]【生】【附日字】

General Unique ID                      : 256783264957725732719969544283748259213 (0xC12EA86D7149FA498EF6258F932F558D) Complete name                  : Pandora.no.Kajitsu.Kagaku.Hanzai.Sousa.File.EP09.1080p.HULU.WEB-DL.AAC2.0.H.264-MagicStar.mkv Format                         : Matroska Format version                 : Version 4 File size                      : 1.22 GiB Duration                       : 43 min 13 s Overall bit rate               : 4 047 kb/s Encoded date                   : UTC 2022-06-18 14:26:12 Writing application            : mkvmerge v50.0.0 ('Awakenings') 64-bit Writing library                : libebml v1.4.0 + libmatroska v1.6.2 Cover                          : Yes Attachments                    : cover.png  Video ID                             : 1 Format                         : AVC Format/Info                    : Advanced Video Codec Format profile                 : [email protected] Format settings                : CABAC / 4 Ref Frames Format settings, CABAC         : Yes Format settings, Reference fra : 4 frames Codec ID                       : V_MPEG4/ISO/AVC Duration                       : 43 min 13 s Bit rate                       : 3 920 kb/s Width                          : 1 920 pixels Height                         : 1 080 pixels Display aspect ratio           : 16:9 Frame rate mode                : Constant Frame rate                     : 23.976 (24000/1001) FPS Color space                    : YUV Chroma subsampling             : 4:2:0 Bit depth                      : 8 bits Scan type                      : Progressive Bits/(Pixel*Frame)             : 0.079 Stream size                    : 1.18 GiB (97%) Default                        : Yes Forced                         : No Color range                    : Limited Color primaries                : BT.709 Transfer characteristics       : BT.709 Matrix coefficients            : BT.709  Audio ID                             : 2 Format                         : AAC LC Format/Info                    : Advanced Audio Codec Low Complexity Codec ID                       : A_AAC-2 Duration                       : 43 min 13 s Bit rate                       : 125 kb/s Channel(s)                     : 2 channels Channel layout                 : L R Sampling rate                  : 48.0 kHz Frame rate                     : 46.875 FPS (1024 SPF) Compression mode               : Lossy Stream size                    : 38.8 MiB (3%) Language                       : Japanese Default                        : Yes Forced                         : No

[桜都字幕組] 雀魂 PONG / Jantama Pong [11][1080p][繁體內嵌]

标题:天使二次元萌站acgn,动漫导航页_[MagicStar] 潘多拉的果实~科学犯罪搜查档案~ / パンドラの果実~科学犯罪捜査ファイル~ EP09 [WEBDL] [1080p] [HULU]【生】【附日字】

分类:世界

链接:https://www.acghotel.com/29134.html

版权:本站文章来自网络,如有侵权请联系站长shooder@hotmail.com