绅士漫画agg,屋次元acg动漫网站入口_[MagicStar] 单恋美食家日志 第二季 / 片恋グルメ日記2 EP05 [WEBDL] [1080p] [HULU]【生】

2022-06-20 创建 2

HD 1080p from HULU JAPAN.
绅士漫画agg,屋次元acg动漫网站入口_[MagicStar] 单恋美食家日志 第二季 / 片恋グルメ日記2 EP05 [WEBDL] [1080p] [HULU]【生】

General Unique ID                      : 310929087820659948165661146154091629076 (0xE9EAC39AD80FA1F5AC0941863A334A14) Complete name                  : Katakoi.Gurume.Nikki.S02EP05.1080p.HULU.WEB-DL.AAC2.0.H.264-MagicStar.mkv Format                         : Matroska Format version                 : Version 4 File size                      : 662 MiB Duration                       : 24 min 46 s Overall bit rate               : 3 733 kb/s Encoded date                   : UTC 2022-06-20 14:39:38 Writing application            : mkvmerge v50.0.0 ('Awakenings') 64-bit Writing library                : libebml v1.4.0 + libmatroska v1.6.2 Cover                          : Yes Attachments                    : cover.png  Video ID                             : 1 Format                         : AVC Format/Info                    : Advanced Video Codec Format profile                 : [email protected] Format settings                : CABAC / 4 Ref Frames Format settings, CABAC         : Yes Format settings, Reference fra : 4 frames Codec ID                       : V_MPEG4/ISO/AVC Duration                       : 24 min 46 s Bit rate                       : 3 605 kb/s Width                          : 1 920 pixels Height                         : 1 080 pixels Display aspect ratio           : 16:9 Frame rate mode                : Constant Frame rate                     : 29.970 (29970/1000) FPS Original frame rate            : 29.970 (30000/1001) FPS Color space                    : YUV Chroma subsampling             : 4:2:0 Bit depth                      : 8 bits Scan type                      : Progressive Bits/(Pixel*Frame)             : 0.058 Stream size                    : 639 MiB (97%) Default                        : Yes Forced                         : No Color range                    : Limited Color primaries                : BT.709 Transfer characteristics       : BT.709 Matrix coefficients            : BT.709  Audio ID                             : 2 Format                         : AAC LC Format/Info                    : Advanced Audio Codec Low Complexity Codec ID                       : A_AAC-2 Duration                       : 24 min 46 s Bit rate                       : 125 kb/s Channel(s)                     : 2 channels Channel layout                 : L R Sampling rate                  : 48.0 kHz Frame rate                     : 46.875 FPS (1024 SPF) Compression mode               : Lossy Stream size                    : 22.2 MiB (3%) Language                       : Japanese Default                        : Yes Forced                         : No

[NC-Raws] Healer Girl - 12 (B-Global 3840x2160 HEVC AAC MKV)

标题:绅士漫画agg,屋次元acg动漫网站入口_[MagicStar] 单恋美食家日志 第二季 / 片恋グルメ日記2 EP05 [WEBDL] [1080p] [HULU]【生】

分类:世界

链接:https://www.acghotel.com/29601.html

版权:本站文章来自网络,如有侵权请联系站长shooder@hotmail.com